Про усе

Информация о пользователе

Привет, Гость! Войдите или зарегистрируйтесь.


Вы здесь » Про усе » Архів » Видеопробы для комп - 1


Видеопробы для комп - 1

Сообщений 1 страница 6 из 6

1

Видеопробы для комп - 1

0

2

Робить нормально:

   General
      Complete name : 172. ТАСС уполномочен заявить - 10.06.11.avi
      Format : AVI
      Format/Info : Audio Video Interleave
      File size : 445 MiB
      Duration : 41mn 51s
      Overall bit rate : 1 487 Kbps
      Movie name : НТВ_Следствие вели..._172_10.06.11_ТАСС Уполномочен Заявить
      Writing application : VirtualDubMod 1.5.10.3 | virtualdub-fr.org || (build 2550/release)
      Comment : Rip by iriston
   Video #0
      ID : 0
      Format : MPEG-4 Visual
      Format profile : Advanced Simple@L5
      Format settings, BVOP : 1
      Format settings, QPel : No
      Format settings, GMC : No warppoints
      Format settings, Matrix : Custom
      Codec ID : XVID
      Codec ID/Hint : XviD
      Duration : 41mn 51s
      Bit rate : 1 286 Kbps
      Width : 640 pixels
      Height : 480 pixels
      Display aspect ratio : 4:3
      Frame rate : 25.000 fps
      Color space : YUV
      Chroma subsampling : 4:2:0
      Bit depth : 8 bits
      Scan type : Progressive
      Compression mode : Lossy
      Bits/(Pixel*Frame) : 0.167
      Stream size : 385 MiB (86%)
      Writing library : XviD 63
   Audio #1
      ID : 1
      Format : MPEG Audio
      Format version : Version 1
      Format profile : Layer 3
      Codec ID : 55
      Codec ID/Hint : MP3
      Duration : 41mn 51s
      Bit rate mode : Constant
      Bit rate : 192 Kbps
      Channel count : 2 channels
      Sampling rate : 48.0 KHz
      Compression mode : Lossy
      Stream size : 57.5 MiB (13%)
      Alignment : Aligned on interleaves
      Interleave, duration : 40 ms (1.00 video frame)
      Interleave, preload duration : 504 ms
      Writing library : LAME3.98r
      Encoding settings : -m s -V 4 -q 2 -lowpass 18.6 -b 192

0

3

Робить нормально:

post.kvn.95.kvartal.30.avi
   General
      Complete name : post.kvn.95.kvartal.30.avi
      Format : AVI
      Format/Info : Audio Video Interleave
      File size : 1.37 GiB
      Duration : 1h 44mn
      Overall bit rate : 1 878 Kbps
      Writing application : VirtualDubMod 1.5.10.2 (build 2540/release)
      Writing library : VirtualDubMod build 2540/release
   Video #0
      ID : 0
      Format : MPEG-4 Visual
      Format settings, BVOP : 1
      Format settings, QPel : No
      Format settings, GMC : No warppoints
      Format settings, Matrix : Default (H.263)
      Muxing mode : Packed bitstream
      Codec ID : DX50
      Codec ID/Hint : DivX 5
      Duration : 1h 44mn
      Bit rate : 1 741 Kbps
      Width : 720 pixels
      Height : 544 pixels
      Display aspect ratio : 5:4
      Original display aspect ratio : 4:3
      Frame rate : 25.000 fps
      Color space : YUV
      Chroma subsampling : 4:2:0
      Bit depth : 8 bits
      Scan type : Progressive
      Compression mode : Lossy
      Bits/(Pixel*Frame) : 0.178
      Stream size : 1.27 GiB (93%)
      Writing library : DivX 6.8.3-6.8.4 (UTC 2008-06-07)
   Audio #1
      ID : 1
      Format : MPEG Audio
      Format version : Version 1
      Format profile : Layer 3
      Mode : Joint stereo
      Mode extension : MS Stereo
      Codec ID : 55
      Codec ID/Hint : MP3
      Duration : 1h 44mn
      Bit rate mode : Constant
      Bit rate : 128 Kbps
      Channel count : 2 channels
      Sampling rate : 48.0 KHz
      Compression mode : Lossy
      Stream size : 95.4 MiB (7%)
      Alignment : Aligned on interleaves
      Interleave, duration : 40 ms (1.00 video frame)
      Interleave, preload duration : 504 ms

0

4

НЕ ТЯНЕТ:
Знахарь_2_Охота_без_правил.2011.01_серия.х264.Nikolai.Baranov.DVBRipAVC.mp4
   General
      Complete name : Знахарь_2_Охота_без_правил.2011.01_серия.х264.Nikolai.Baranov.DVBRipAVC.mp4
      Format : MPEG-4
      Format profile : Base Media
      Codec ID : isom
      File size : 339 MiB
      Duration : 46mn 5s
      Overall bit rate : 1 030 Kbps
      Writing application : Lavf57.25.100
   Video #1
      ID : 1
      Format : AVC
      Format/Info : Advanced Video Codec
      Format profile : Baseline@L3.1
      Format settings, CABAC : No
      Format settings, ReFrames : 1 frame
      Format settings, GOP : M=1, N=12
      Codec ID : avc1
      Codec ID/Info : Advanced Video Coding
      Duration : 46mn 5s
      Bit rate : 673 Kbps
      Width : 720 pixels
      Height : 576 pixels
      Display aspect ratio : 5:4
      Frame rate mode : Constant
      Frame rate : 29.970 fps
      Standard : PAL
      Color space : YUV
      Chroma subsampling : 4:2:0
      Bit depth : 8 bits
      Scan type : Progressive
      Bits/(Pixel*Frame) : 0.054
      Stream size : 222 MiB (65%)
   Audio #2
      ID : 2
      Format : AAC
      Format/Info : Advanced Audio Codec
      Format profile : LC
      Codec ID : 40
      Duration : 46mn 4s
      Bit rate mode : Constant
      Bit rate : 353 Kbps
      Channel count : 2 channels
      Original Channel count : 6 channels
      Channel positions : Front: L C R, Side: L R, LFE
      Sampling rate : 44.1 KHz
      Compression mode : Lossy
      Stream size : 115 MiB (34%)

0

5

КРУТИТЬ НОРМАЛЬНО:

General
      Complete name : Znahar.e01.XviD.SATRip.25Kuzmich.avi
      Format : AVI
      Format/Info : Audio Video Interleave
      File size : 600 MiB
      Duration : 50mn 37s
      Overall bit rate : 1 657 Kbps
      Writing application : VirtualDubMod 1.5.10.3 | virtualdub-fr.org || (build 2550/release)
      Writing library : VirtualDubMod build 2550/release
   Video #0
      ID : 0
      Format : MPEG-4 Visual
      Format profile : Advanced Simple@L5
      Format settings, BVOP : 1
      Format settings, QPel : No
      Format settings, GMC : No warppoints
      Format settings, Matrix : Default (MPEG)
      Codec ID : XVID
      Codec ID/Hint : XviD
      Duration : 50mn 37s
      Bit rate : 1 456 Kbps
      Width : 720 pixels
      Height : 400 pixels
      Display aspect ratio : 16:9
      Frame rate : 25.000 fps
      Color space : YUV
      Chroma subsampling : 4:2:0
      Bit depth : 8 bits
      Scan type : Progressive
      Compression mode : Lossy
      Bits/(Pixel*Frame) : 0.202
      Stream size : 527 MiB (88%)
      Writing library : XviD 73
   Audio #1
      ID : 1
      Format : MPEG Audio
      Format version : Version 1
      Format profile : Layer 3
      Mode : Joint stereo
      Codec ID : 55
      Codec ID/Hint : MP3
      Duration : 50mn 37s
      Bit rate mode : Constant
      Bit rate : 192 Kbps
      Channel count : 2 channels
      Sampling rate : 48.0 KHz
      Compression mode : Lossy
      Stream size : 69.5 MiB (12%)
      Alignment : Aligned on interleaves
      Interleave, duration : 40 ms (1.00 video frame)
      Interleave, preload duration : 504 ms
      Writing library : LAME3.99r
      Encoding settings : -m j -V 4 -q 2 -lowpass 18.6 -b 192

0

6

НЕ ТЯГНЕ:
   General
      Complete name : Знахарь_2_Охота_без_правил.2011.11_серия.х264.Nikolai.Baranov.DVBRipAVC.mp4
      Format : MPEG-4
      Format profile : Base Media
      Codec ID : isom
      File size : 933 MiB
      Duration : 46mn 7s
      Overall bit rate mode : Variable
      Overall bit rate : 2 829 Kbps
      Encoded date : UTC 2011-09-16 11:41:22
      Tagged date : UTC 2011-09-16 11:41:22
      Writing application : Lavf51.12.1
   Video #1
      ID : 1
      Format : AVC
      Format/Info : Advanced Video Codec
      Format profile : Baseline@L3.0
      Format settings, CABAC : No
      Format settings, ReFrames : 1 frame
      Format settings, GOP : M=1, N=12
      Codec ID : avc1
      Codec ID/Info : Advanced Video Coding
      Duration : 46mn 7s
      Bit rate mode : Variable
      Bit rate : 2 505 Kbps
      Maximum bit rate : 3 000 Kbps
      Width : 720 pixels
      Height : 576 pixels
      Display aspect ratio : 5:4
      Frame rate mode : Constant
      Frame rate : 29.970 fps
      Original frame rate : 24.000 fps
      Standard : PAL
      Color space : YUV
      Chroma subsampling : 4:2:0
      Bit depth : 8 bits
      Scan type : Progressive
      Bits/(Pixel*Frame) : 0.202
      Stream size : 826 MiB (89%)
      Encoded date : UTC 2011-09-16 11:41:22
      Tagged date : UTC 2011-09-16 11:41:22
   Audio #2
      ID : 2
      Format : AAC
      Format/Info : Advanced Audio Codec
      Format profile : LC
      Codec ID : 40
      Duration : 46mn 6s
      Bit rate mode : Variable
      Bit rate : 320 Kbps
      Channel count : 2 channels
      Original Channel count : 6 channels
      Channel positions : Front: L C R, Side: L R, LFE
      Sampling rate : 44.1 KHz
      Compression mode : Lossy
      Stream size : 106 MiB (11%)
      Encoded date : UTC 2011-09-16 11:41:22
      Tagged date : UTC 2011-09-16 11:41:22

0

Быстрый ответ

Напишите ваше сообщение и нажмите «Отправить»



Вы здесь » Про усе » Архів » Видеопробы для комп - 1