Про усе

Информация о пользователе

Привет, Гость! Войдите или зарегистрируйтесь.


Вы здесь » Про усе » Архів » Відеопроби (конвертування)


Відеопроби (конвертування)

Сообщений 1 страница 20 из 22

1

MediaConverter 0.9.6 для Андроід

Категорія: Відеоредактори

MediaConverter 0.9.6

Короткий опис застосунку:

Media Converter дозволяє конвертувати всі види медіа-форматів в популярних медіа-форматів: MP3, MP4 (MPEG4 / H264, AAC), Ogg (Theora, FLAC), AVI (mpeg4, mp3), MPEG (MPEG1, MP2), FLV (FLV , mP3), GIF і WAV. Також звукові профілі: m4a (ААС-тільки аудіо), 3GA (ААС-тільки аудіо), Oga (FLAC-тільки аудіо) доступні для зручності.
Ви можете також подрібнити / кліп медіа-файл або витягти звук, щоб зробити мелодію дзвінка.
Ви також можете обрізати чи повернути для виведення відео.
Ви можете задати параметри, включаючи аудіо / відео бітрейт, дозвіл, частоту кадрів, частоту дискретизації звуку.
Завантажити можна звідси: https://trashbox.ru/link/media-converter-android

Від автора теми:
Не скажу, що я розглянув дуже багато відеоредакторів та вибрав саме цей по якимось принципам, просто, цей перший з розглянутих мною (двух :-) ) редакторів який мені сподобався та я вирішив поки на ньому й зупинитись. Він має можливості які мені потрібні та мені влаштовують. Саме головне у ньому є пакетна обробка.

Сам користуюсь версію:
b0ef5fa9b44499a3ebb98ba0a806a7ed *com.androida.mediaconverter_2018-11-09.apk
9b4519717a5bc24e02ff03db9c4a0259 *media_converter_v0.9.3.apk

"768"
1 хвилина =     6 692 486
10 хвилин =   66 924 860
20 хвилин =   133 849 720
40 хвилин =   267 699 440
60 хвилин =   401 549 160
90 хвилин =   602 323 740
120 хвилин = 803 098 320

камера мобільного-1 знімає в відео (установка в "висока якість") з такими параметрами:

інфо КМП

D:\_Video to Video\Видеокамера моб1\моб1(выс).avi
   General
      Complete name : D:\_Video to Video\Видеокамера моб1\моб1(выс).avi
      Format : AVI
      Format/Info : Audio Video Interleave
      File size : 578 KiB
      Duration : 6s 800ms
      Overall bit rate : 696 Kbps

   Video #0
      ID : 0
      Format : JPEG
      Codec ID : MJPG
      Duration : 6s 800ms
      Bit rate : 549 Kbps
      Width : 176 pixels
      Height : 144 pixels
      Display aspect ratio : 1.222
      Frame rate : 14.118 fps
      Color space : YUV
      Chroma subsampling : 4:2:0
      Bit depth : 8 bits
      Compression mode : Lossy
      Bits/(Pixel*Frame) : 1.534
      Stream size : 456 KiB (79%)

   Audio #1
      ID : 1
      Format : PCM
      Format settings, Endianness : Little
      Format settings, Sign : Signed
      Codec ID : 1
      Duration : 6s 800ms
      Bit rate mode : Constant
      Bit rate : 128 Kbps
      Channel count : 1 channel
      Sampling rate : 8 000 Hz
      Bit depth : 16 bits
      Stream size : 106 KiB (18%)
      Alignment : Aligned on interleaves
      Interleave, duration : 486 ms (6.86 video frames)

параметки зномки камері моб-1 (не згадаю звідки)

Format: AVI
Video:
Codec: MJPG
Bit rate: 500 Kbps
Width: 176 pixels
Height: 144 pixels
Frame rate: 15 fps
Audio:
Format: PCM
Bit rate: 128 Kbps
Channel(s): 1 channel
Sampling rate: 8 000 Hz
Resolution: 16 bits

+ ФОРМАТЫ MPEG4, 3GP


Налаштування в  VideoConvPro

Установки в VideoConvPro

Правка\ОПЦИИ\Приоритет процесса=Idle
Кол-во потоков кодирования=0
зняти "галочку" з "Добавлять имя кодека к имени файла"
Правка\ОПЦИИ\Синхро аудио\видео=60

Вибрати "мобильное видео" МП4 (справа вгорі)

право низ налаштувати:

Видео кодек=мпег4(МПЕГ4) (?!?!?можна Xvid??!?!)
разрешение видео=176х144
Битрейт видео=160
Частота кадров=15

Аудио кодек=асс
Битрейт аудио=128
Частота=44100
А\В синх=default

Для моб-1  бітрейд = 160  \ 1 725 192,02083 байт/хв



камера мобільного-2 знімає в відео (установка в "висока якість") з такими параметрами:
(Экран: 4", сенсорный, 800x480, емкостный, TFT, 16 млн.цв.)

176х144

D:\_Video to Video\m2\VID_20200806_115732.mp4
   General
      Complete name : D:\_Video to Video\m2\VID_20200806_115732.mp4
      Format : MPEG-4
      Format profile : Base Media
      Codec ID : isom
      File size : 2.33 MiB
      Duration : 11s 100ms
      Overall bit rate : 1 762 Kbps
      Encoded date : UTC 2020-08-06 08:57:32
      Tagged date : UTC 2020-08-06 08:57:32
   Video #1
      ID : 1
      Format : AVC
      Format/Info : Advanced Video Codec
      Format profile : Baseline@L2.1
      Format settings, CABAC : No
      Format settings, ReFrames : 1 frame
      Codec ID : avc1
      Codec ID/Info : Advanced Video Coding
      Duration : 10s 717ms
      Bit rate : 1 689 Kbps
      Width : 480 pixels
      Height : 320 pixels
      Display aspect ratio : 3:2
      Rotation : 90°
      Frame rate mode : Variable
      Frame rate : 19.969 fps
      Original frame rate : 30.000 fps
      Minimum frame rate : 19.942 fps
      Maximum frame rate : 19.996 fps
      Color space : YUV
      Chroma subsampling : 4:2:0
      Bit depth : 8 bits
      Scan type : Progressive
      Bits/(Pixel*Frame) : 0.551
      Stream size : 2.16 MiB (93%)
      Title : VideoHandle
      Language : English
      Encoded date : UTC 2020-08-06 08:57:32
      Tagged date : UTC 2020-08-06 08:57:32
      mdhd_Duration : 10717
   Audio #2
      ID : 2
      Format : AAC
      Format/Info : Advanced Audio Codec
      Format profile : LC
      Codec ID : 40
      Duration : 11s 100ms
      Duration_FirstFrame : 28ms
      Bit rate mode : Constant
      Bit rate : 128 Kbps
      Channel count : 2 channels
      Channel positions : Front: L R
      Sampling rate : 48.0 KHz
      Compression mode : Lossy
      Stream size : 173 KiB (7%)
      Title : SoundHandle
      Language : English
      Encoded date : UTC 2020-08-06 08:57:32
      Tagged date : UTC 2020-08-06 08:57:32

480х320

D:\_Video to Video\m2\VID_20200806_115732.mp4
   General
      Complete name : D:\_Video to Video\m2\VID_20200806_115732.mp4
      Format : MPEG-4
      Format profile : Base Media
      Codec ID : isom
      File size : 2.33 MiB
      Duration : 11s 100ms
      Overall bit rate : 1 762 Kbps
      Encoded date : UTC 2020-08-06 08:57:32
      Tagged date : UTC 2020-08-06 08:57:32
   Video #1
      ID : 1
      Format : AVC
      Format/Info : Advanced Video Codec
      Format profile : Baseline@L2.1
      Format settings, CABAC : No
      Format settings, ReFrames : 1 frame
      Codec ID : avc1
      Codec ID/Info : Advanced Video Coding
      Duration : 10s 717ms
      Bit rate : 1 689 Kbps
      Width : 480 pixels
      Height : 320 pixels
      Display aspect ratio : 3:2
      Rotation : 90°
      Frame rate mode : Variable
      Frame rate : 19.969 fps
      Original frame rate : 30.000 fps
      Minimum frame rate : 19.942 fps
      Maximum frame rate : 19.996 fps
      Color space : YUV
      Chroma subsampling : 4:2:0
      Bit depth : 8 bits
      Scan type : Progressive
      Bits/(Pixel*Frame) : 0.551
      Stream size : 2.16 MiB (93%)
      Title : VideoHandle
      Language : English
      Encoded date : UTC 2020-08-06 08:57:32
      Tagged date : UTC 2020-08-06 08:57:32
      mdhd_Duration : 10717
   Audio #2
      ID : 2
      Format : AAC
      Format/Info : Advanced Audio Codec
      Format profile : LC
      Codec ID : 40
      Duration : 11s 100ms
      Duration_FirstFrame : 28ms
      Bit rate mode : Constant
      Bit rate : 128 Kbps
      Channel count : 2 channels
      Channel positions : Front: L R
      Sampling rate : 48.0 KHz
      Compression mode : Lossy
      Stream size : 173 KiB (7%)
      Title : SoundHandle
      Language : English
      Encoded date : UTC 2020-08-06 08:57:32
      Tagged date : UTC 2020-08-06 08:57:32

640х480

D:\_Video to Video\m2\VID_20200806_115654.mp4
   General
      Complete name : D:\_Video to Video\m2\VID_20200806_115654.mp4
      Format : MPEG-4
      Format profile : Base Media
      Codec ID : isom
      File size : 6.62 MiB
      Duration : 11s 616ms
      Overall bit rate mode : Constant
      Overall bit rate : 4 782 Kbps
      Encoded date : UTC 2020-08-06 08:56:54
      Tagged date : UTC 2020-08-06 08:56:54

   Video #1
      ID : 1
      Format : MPEG-4 Visual
      Format profile : Advanced Simple@L5
      Format settings, BVOP : Yes
      Format settings, QPel : No
      Format settings, GMC : No warppoints
      Format settings, Matrix : Default (H.263)
      Codec ID : 20
      Duration : 11s 518ms
      Bit rate mode : Constant
      Bit rate : 4 691 Kbps
      Nominal bit rate : 256 Kbps
      Width : 640 pixels
      Height : 480 pixels
      Display aspect ratio : 4:3
      Rotation : 90°
      Frame rate mode : Variable
      Frame rate : 19.969 fps
      Minimum frame rate : 19.942 fps
      Maximum frame rate : 19.996 fps
      Color space : YUV
      Bit depth : 8 bits
      Scan type : Progressive
      Compression mode : Lossy
      Bits/(Pixel*Frame) : 0.765
      Stream size : 6.44 MiB (97%)
      Title : VideoHandle
      Writing library : MTK_ENCODER_V3
      Language : English
      Encoded date : UTC 2020-08-06 08:56:54
      Tagged date : UTC 2020-08-06 08:56:54
   Audio #2
      ID : 2
      Format : AAC
      Format/Info : Advanced Audio Codec
      Format profile : LC
      Codec ID : 40
      Duration : 11s 616ms
      Duration_FirstFrame : 32ms
      Bit rate mode : Constant
      Bit rate : 128 Kbps
      Channel count : 2 channels
      Channel positions : Front: L R
      Sampling rate : 48.0 KHz
      Compression mode : Lossy
      Stream size : 181 KiB (3%)
      Title : SoundHandle
      Language : English
      Encoded date : UTC 2020-08-06 08:56:54
      Tagged date : UTC 2020-08-06 08:56:54

Для моб-2 мінімальний бітрейд = 320  \ 3 828 919,4583 байта/хв



Для "11"("15") мінімальний бітрейд = 768  \ 6 692 486,4375 байта/хв

КМП

D:\_Video to Video\768.mp4
   General
      Complete name : D:\_Video to Video\768.mp4
      Format : MPEG-4
      Format profile : Base Media
      Codec ID : isom
      File size : 306 MiB
      Duration : 47mn 40s
      Overall bit rate mode : Variable
      Overall bit rate : 898 Kbps
      Writing application : Lavf54.63.104
   Video #1
      ID : 1
      Format : MPEG-4 Visual
      Format profile : Simple@L1
      Format settings, BVOP : No
      Format settings, QPel : No
      Format settings, GMC : No warppoints
      Format settings, Matrix : Default (H.263)
      Codec ID : 20
      Duration : 47mn 40s
      Bit rate mode : Constant
      Bit rate : 768 Kbps
      Width : 720 pixels
      Height : 400 pixels
      Display aspect ratio : 16:9
      Frame rate mode : Constant
      Frame rate : 25.000 fps
      Color space : YUV
      Chroma subsampling : 4:2:0
      Bit depth : 8 bits
      Scan type : Progressive
      Compression mode : Lossy
      Bits/(Pixel*Frame) : 0.107
      Stream size : 262 MiB (85%)
      Writing library : Lavc54.92.100
   Audio #2
      ID : 2
      Format : AAC
      Format/Info : Advanced Audio Codec
      Format profile : LC
      Codec ID : 40
      Duration : 47mn 40s
      Bit rate mode : Variable
      Bit rate : 124 Kbps
      Maximum bit rate : 128 Kbps
      Channel count : 2 channels
      Channel positions : Front: L R
      Sampling rate : 44.1 KHz
      Compression mode : Lossy
      Stream size : 42.4 MiB (14%)



0

2

Video To Video Converter
Конвертер видео в видео абсолютно бесплатен и не содержит вредоносных программ.
https://videotovideo.org/

Завантажував портабельну версія звідси (XP,Vista,Win7,Win10)
https://videotovideo.org/download/VTV.zip
перевірено
https://www.virustotal.com
вірусів немає
є російська локалізація меню


чорнові відеопроби

01.evv

[Video to Video Profile]
ID=AVI Movie (*.avi)
[AVI Movie (*.avi)]
rQuality=Same as source
rVideoCodec=xvid
rAudioCodec=mp3
rAudioChannel=2
rAudioSamplerate=44100
rVolume=221
rVideoSize=640x480
rVideoFramerate=Auto
rVideoAspect=Auto
rVideoBitrate=256
rAudioBitrate=128
rVideoTag=DIVX
rVideoPreset=
rLevel=30
rDisableAudio=No
rAVSync=No
rExtraCommand=
rDeinterlace=No
rKeepAspect=Yes
rSubtitleRenderer=Video to Video
rTargetFilesize=0
rTwopass=No

02.evv

[Video to Video Profile]
ID=Youtube 240p Movie (*.mp4)
[Youtube 240p Movie (*.mp4)]
rQuality=Custom
rVideoCodec=x264
rAudioCodec=aac
rAudioChannel=2
rAudioSamplerate=48000
rVolume=256
rVideoSize=426x240
rVideoFramerate=Auto
rVideoAspect=Auto
rVideoBitrate=1024
rAudioBitrate=128
rDisableAudio=No
rAVSync=No
rExtraCommand=
rDeinterlace=No
rKeepAspect=Yes
rSubtitleRenderer=Video to Video
rTargetFilesize=0
rTwopass=No

03.evv

[Video to Video Profile]
ID=Youtube 360p Movie (*.mp4)
[Youtube 360p Movie (*.mp4)]
rQuality=Custom
rVideoCodec=x264
rAudioCodec=aac
rAudioChannel=2
rAudioSamplerate=48000
rVolume=256
rVideoSize=640x360
rVideoFramerate=Auto
rVideoAspect=Auto
rVideoBitrate=1500
rAudioBitrate=128
rDisableAudio=No
rAVSync=No
rExtraCommand=
rDeinterlace=No
rKeepAspect=Yes
rSubtitleRenderer=Video to Video
rTargetFilesize=0
rTwopass=No

04.evv

[Video to Video Profile]
ID=AVI Movie (*.avi)
[AVI Movie (*.avi)]
rQuality=Same as source
rVideoCodec=xvid
rAudioCodec=mp3
rAudioChannel=2
rAudioSamplerate=44100
rVolume=221
rVideoSize=640x480
rVideoFramerate=Auto
rVideoAspect=Auto
rVideoBitrate=128
rAudioBitrate=128
rVideoTag=DIVX
rVideoPreset=
rLevel=30
rDisableAudio=No
rAVSync=No
rExtraCommand=
rDeinterlace=No
rKeepAspect=Yes
rSubtitleRenderer=Video to Video
rTargetFilesize=0
rTwopass=No

0

3

Проба видео
Super Duduk Space! Дудук-бэнд "Сердце знает" Космос Галактика
https://www.youtube.com/watch?v=ZhUVMKcGsXU
Скачано WebM 720
розмір: 23 651 922 байта
час відтворення: 3 хв 55 сек

0

4

WebM не ввдкриває МП4 720 та МП4 480 теж
може відео такі

завантажив МП4 360
розмір:13 699 974 байт

інфо КМПлеера

D:\360_Super Duduk Space!  Дудук-бэнд 'Сердце знает' Космос Галактика.mp4
   General
      Complete name : D:\360_Super Duduk Space!  Дудук-бэнд 'Сердце знает' Космос Галактика.mp4
      Format : MPEG-4
      Format profile : Base Media / Version 2
      Codec ID : mp42
      File size : 13.1 MiB
      Duration : 3mn 55s
      Overall bit rate mode : Variable
      Overall bit rate : 466 Kbps
      Encoded date : UTC 2017-01-01 07:02:47
      Tagged date : UTC 2017-01-01 07:02:47
   Video #1
      ID : 1
      Format : AVC
      Format/Info : Advanced Video Codec
      Format profile : Baseline@L3.0
      Format settings, CABAC : No
      Format settings, ReFrames : 1 frame
      Format settings, GOP : M=1, N=60
      Codec ID : avc1
      Codec ID/Info : Advanced Video Coding
      Duration : 3mn 55s
      Bit rate : 368 Kbps
      Maximum bit rate : 2 095 Kbps
      Width : 640 pixels
      Height : 360 pixels
      Display aspect ratio : 16:9
      Frame rate mode : Constant
      Frame rate : 29.970 fps
      Color space : YUV
      Chroma subsampling : 4:2:0
      Bit depth : 8 bits
      Scan type : Progressive
      Bits/(Pixel*Frame) : 0.053
      Stream size : 10.3 MiB (79%)
      Tagged date : UTC 2017-01-01 07:02:49
      Color primaries : BT.709
      Transfer characteristics : BT.709
      Matrix coefficients : BT.709
   Audio #2
      ID : 2
      Format : AAC
      Format/Info : Advanced Audio Codec
      Format profile : LC
      Codec ID : 40
      Duration : 3mn 55s
      Bit rate mode : Variable
      Bit rate : 96.0 Kbps
      Maximum bit rate : 104 Kbps
      Channel count : 2 channels
      Channel positions : Front: L R
      Sampling rate : 44.1 KHz
      Compression mode : Lossy
      Stream size : 2.69 MiB (21%)
      Title : IsoMedia File Produced by Google, 5-11-2011
      Encoded date : UTC 2017-01-01 07:02:48
      Tagged date : UTC 2017-01-01 07:02:49

конвертую по шаблону

01.evv

[Video to Video Profile]
ID=AVI Movie (*.avi)
[AVI Movie (*.avi)]
rQuality=Same as source
rVideoCodec=xvid
rAudioCodec=mp3
rAudioChannel=2
rAudioSamplerate=44100
rVolume=221
rVideoSize=640x480
rVideoFramerate=Auto
rVideoAspect=Auto
rVideoBitrate=256
rAudioBitrate=128
rVideoTag=DIVX
rVideoPreset=
rLevel=30
rDisableAudio=No
rAVSync=No
rExtraCommand=
rDeinterlace=No
rKeepAspect=Yes
rSubtitleRenderer=Video to Video
rTargetFilesize=0
rTwopass=No

0

5

розмір ковертованого 43 367 841 байт / 4 =  841960,25 байт/хв

інфо КМП

General
      Complete name :360_Super Duduk Space!  Дудук-бэнд 'Сердце знает' Космос Галактика.avi
      Format : AVI
      Format/Info : Audio Video Interleave
      File size : 41.4 MiB
      Duration : 3mn 55s
      Overall bit rate mode : Variable
      Overall bit rate : 1 475 Kbps
      Writing application : Lavf54.63.104
   Video #0
      ID : 0
      Format : MPEG-4 Visual
      Format profile : Simple@L3
      Format settings, BVOP : No
      Format settings, QPel : No
      Format settings, GMC : No warppoints
      Format settings, Matrix : Default (H.263)
      Codec ID : XVID
      Codec ID/Hint : XviD
      Duration : 3mn 55s
      Bit rate : 1 224 Kbps
      Width : 640 pixels
      Height : 480 pixels
      Display aspect ratio : 4:3
      Frame rate : 29.970 fps
      Color space : YUV
      Chroma subsampling : 4:2:0
      Bit depth : 8 bits
      Scan type : Progressive
      Compression mode : Lossy
      Bits/(Pixel*Frame) : 0.133
      Stream size : 34.3 MiB (83%)
      Writing library : XviD 64
   Audio #1
      ID : 1
      Format : MPEG Audio
      Format version : Version 1
      Format profile : Layer 3
      Mode : Joint stereo
      Codec ID : 55
      Codec ID/Hint : MP3
      Duration : 3mn 55s
      Bit rate mode : Variable
      Bit rate : 128 Kbps
      Channel count : 2 channels
      Sampling rate : 44.1 KHz
      Compression mode : Lossy
      Stream size : 6.69 MiB (16%)
      Alignment : Aligned on interleaves
      Interleave, duration : 26 ms (0.78 video frame)
      Interleave, preload duration : 6 ms

0

6

смотрела мама, качество если с далека нормально
с близка можна и получше
м-3 1с
час: 47:40
розмір:411 690 357 байт / 48 = 8 576 882,4375 байт/хв

кмп

м-3 1с.mp4
   General
      Complete name : м-3 1с.mp4
      Format : MPEG-4
      Format profile : Base Media
      Codec ID : isom
      File size : 393 MiB
      Duration : 47mn 40s
      Overall bit rate mode : Variable
      Overall bit rate : 1 151 Kbps
      Writing application : Lavf54.63.104

   Video #1
      ID : 1
      Format : MPEG-4 Visual
      Format profile : Simple@L1
      Format settings, BVOP : No
      Format settings, QPel : No
      Format settings, GMC : No warppoints
      Format settings, Matrix : Default (H.263)
      Codec ID : 20
      Duration : 47mn 40s
      Bit rate mode : Constant
      Bit rate : 1 021 Kbps
      Width : 640 pixels
      Height : 480 pixels
      Display aspect ratio : 4:3
      Frame rate mode : Constant
      Frame rate : 25.000 fps
      Color space : YUV
      Chroma subsampling : 4:2:0
      Bit depth : 8 bits
      Scan type : Progressive
      Compression mode : Lossy
      Bits/(Pixel*Frame) : 0.133
      Stream size : 348 MiB (89%)
      Writing library : Lavc54.92.100
   Audio #2
      ID : 2
      Format : AAC
      Format/Info : Advanced Audio Codec
      Format profile : LC
      Codec ID : 40
      Duration : 47mn 40s
      Bit rate mode : Variable
      Bit rate : 124 Kbps
      Maximum bit rate : 128 Kbps
      Channel count : 2 channels
      Channel positions : Front: L R
      Sampling rate : 44.1 KHz
      Compression mode : Lossy
      Stream size : 42.4 MiB (11%)

0

7

"01 с М-3.mkv" (Оригинал)
розмір: 677 359 366 / 48 = 14 111 653,458333333333333333333333 б/хв
час відтвор: 47mn 40s

КМП

D:\_Video to Video\01 ? ?-3.mkv
   General
      Unique ID : 180163204892062362509184604255524218365 (0x878A2BCE60F4C6FA9995B0A6A09FE5FD)
      Complete name : D:\_Video to Video\01 ? ?-3.mkv
      Format : Matroska
      Format version : Version 2
      File size : 646 MiB
      Duration : 47mn 40s
      Overall bit rate : 1 895 Kbps
      Encoded date : UTC 2018-10-29 12:53:49
      Writing application : mkvmerge v7.8.0 ('River Man') 32bit built on Apr  3 2015 12:11:22
      Writing library : libebml v1.3.1 + libmatroska v1.4.2
   Video #1
      ID : 1
      Format : AVC
      Format/Info : Advanced Video Codec
      Format profile : High@L4.1
      Format settings, CABAC : Yes
      Format settings, ReFrames : 14 frames
      Codec ID : V_MPEG4/ISO/AVC
      Duration : 47mn 40s
      Nominal bit rate : 1 700 Kbps
      Width : 720 pixels
      Height : 400 pixels
      Display aspect ratio : 16:9
      Frame rate mode : Constant
      Frame rate : 25.000 fps
      Color space : YUV
      Chroma subsampling : 4:2:0
      Bit depth : 8 bits
      Scan type : Progressive
      Bits/(Pixel*Frame) : 0.236
      Writing library : x264 core 146 r2538 121396c
      Encoding settings : cabac=1 / ref=14 / deblock=1:-1:-1 / analyse=0x3:0x133 / me=umh / subme=9 / psy=1 / psy_rd=0.90:0.00 / mixed_ref=0 / me_range=32 / chroma_me=1 / trellis=1 / 8x8dct=1 / cqm=0 / deadzone=21,11 / fast_pskip=0 / chroma_qp_offset=-2 / threads=12 / lookahead_threads=1 / sliced_threads=0 / nr=0 / decimate=0 / interlaced=0 / bluray_compat=0 / constrained_intra=0 / bframes=14 / b_pyramid=2 / b_adapt=1 / b_bias=0 / direct=3 / weightb=1 / open_gop=0 / weightp=2 / keyint=250 / keyint_min=25 / scenecut=40 / intra_refresh=0 / rc_lookahead=40 / rc=2pass / mbtree=1 / bitrate=1700 / ratetol=1.0 / qcomp=0.60 / qpmin=0 / qpmax=39 / qpstep=4 / cplxblur=20.0 / qblur=0.5 / ip_ratio=1.40 / aq=1:1.00
      Default : Yes
      Forced : No
      Color primaries : BT.601 PAL
      Transfer characteristics : BT.470 System B, BT.470 System G
      Matrix coefficients : BT.601
   Audio #2
      ID : 2
      Format : AAC
      Format/Info : Advanced Audio Codec
      Format profile : LC
      Codec ID : A_AAC
      Duration : 47mn 40s
      Channel count : 2 channels
      Channel positions : Front: L R
      Sampling rate : 48.0 KHz
      Compression mode : Lossy
      Delay relative to video : 9ms
      Default : Yes
      Forced : No

0

8

конвертую по налаштуванням

mp4_640_480_512.evv

[Video to Video Profile]
ID=MP4 Movie (*.mp4)
[MP4 Movie (*.mp4)]
rQuality=Custom
rVideoCodec=mpeg4
rAudioCodec=aac
rAudioChannel=2
rAudioSamplerate=44100
rVolume=256

rVideoSize=640x480

rVideoFramerate=Auto
rVideoAspect=Auto

rVideoBitrate=512

rAudioBitrate=128
rVideoPreset=
rDisableAudio=No
rAVSync=No
rExtraCommand=
rDeinterlace=No
rKeepAspect=Yes
rSubtitleRenderer=Video to Video
rTargetFilesize=0
rTwopass=No

mp4_640_480_0512.mp4
Результат:
розмір: 229 713 117 байт /48 = 4 785 689,9375 байт/хв
навіть на "11" треба якість покраще!!!
С двух метрів на "11" - НОРМАЛЬНО!

кмп

D:\_Video to Video\mp4_640_480_0512.mp4
   General
      Complete name : D:\_Video to Video\mp4_640_480_0512.mp4
      Format : MPEG-4
      Format profile : Base Media
      Codec ID : isom
      File size : 219 MiB
      Duration : 47mn 40s
      Overall bit rate mode : Variable
      Overall bit rate : 642 Kbps
      Writing application : Lavf54.63.104
   Video #1
      ID : 1
      Format : MPEG-4 Visual
      Format profile : Simple@L1
      Format settings, BVOP : No
      Format settings, QPel : No
      Format settings, GMC : No warppoints
      Format settings, Matrix : Default (H.263)
      Codec ID : 20
      Duration : 47mn 40s
      Bit rate mode : Constant
      Bit rate : 512 Kbps
      Width : 640 pixels
      Height : 480 pixels

      Display aspect ratio : 4:3
      Frame rate mode : Constant
      Frame rate : 25.000 fps
      Color space : YUV
      Chroma subsampling : 4:2:0
      Bit depth : 8 bits
      Scan type : Progressive
      Compression mode : Lossy
      Bits/(Pixel*Frame) : 0.067
      Stream size : 175 MiB (80%)
      Writing library : Lavc54.92.100

   Audio #2
      ID : 2
      Format : AAC
      Format/Info : Advanced Audio Codec
      Format profile : LC
      Codec ID : 40
      Duration : 47mn 40s
      Bit rate mode : Variable
      Bit rate : 124 Kbps
      Maximum bit rate : 128 Kbps
      Channel count : 2 channels
      Channel positions : Front: L R
      Sampling rate : 44.1 KHz
      Compression mode : Lossy
      Stream size : 42.4 MiB (19%)

0

9

mp4_640_480_0768.mp4
Результат:
розмір: 321 239 349 байт /48 = 6 692 486,4375 байт/хв

КМП

D:\_Video to Video\mp4_640_480_0768.mp4
   General
      Complete name : D:\_Video to Video\mp4_640_480_0768.mp4
      Format : MPEG-4
      Format profile : Base Media
      Codec ID : isom
      File size : 306 MiB
      Duration : 47mn 40s
      Overall bit rate mode : Variable
      Overall bit rate : 898 Kbps
      Writing application : Lavf54.63.104
   Video #1
      ID : 1
      Format : MPEG-4 Visual
      Format profile : Simple@L1
      Format settings, BVOP : No
      Format settings, QPel : No
      Format settings, GMC : No warppoints
      Format settings, Matrix : Default (H.263)
      Codec ID : 20
      Duration : 47mn 40s
      Bit rate mode : Constant
      Bit rate : 768 Kbps
      Width : 720 pixels
      Height : 400 pixels
      Display aspect ratio : 16:9
      Frame rate mode : Constant
      Frame rate : 25.000 fps
      Color space : YUV
      Chroma subsampling : 4:2:0
      Bit depth : 8 bits
      Scan type : Progressive
      Compression mode : Lossy
      Bits/(Pixel*Frame) : 0.107
      Stream size : 262 MiB (85%)
      Writing library : Lavc54.92.100
   Audio #2
      ID : 2
      Format : AAC
      Format/Info : Advanced Audio Codec
      Format profile : LC
      Codec ID : 40
      Duration : 47mn 40s
      Bit rate mode : Variable
      Bit rate : 124 Kbps
      Maximum bit rate : 128 Kbps
      Channel count : 2 channels
      Channel positions : Front: L R
      Sampling rate : 44.1 KHz
      Compression mode : Lossy
      Stream size : 42.4 MiB (14%)

0

10

mp4_800_600_0512.mp4 розмір аналог - mp4_640_480_0512.mp4
АЛЕ ЯКІСЬ ГІРША!

кмп

D:\_Video to Video\mp4_800_600_0512.mp4
   General
      Complete name : D:\_Video to Video\mp4_800_600_0512.mp4
      Format : MPEG-4
      Format profile : Base Media
      Codec ID : isom
      File size : 219 MiB
      Duration : 47mn 40s
      Overall bit rate mode : Variable
      Overall bit rate : 642 Kbps
      Writing application : Lavf54.63.104
   Video #1
      ID : 1
      Format : MPEG-4 Visual
      Format profile : Simple@L1
      Format settings, BVOP : No
      Format settings, QPel : No
      Format settings, GMC : No warppoints
      Format settings, Matrix : Default (H.263)
      Codec ID : 20
      Duration : 47mn 40s
      Bit rate mode : Constant
      Bit rate : 512 Kbps
      Width : 800 pixels
      Height : 600 pixels
      Display aspect ratio : 4:3
      Frame rate mode : Constant
      Frame rate : 25.000 fps
      Color space : YUV
      Chroma subsampling : 4:2:0
      Bit depth : 8 bits
      Scan type : Progressive
      Compression mode : Lossy
      Bits/(Pixel*Frame) : 0.043
      Stream size : 175 MiB (80%)
      Writing library : Lavc54.92.100
   Audio #2
      ID : 2
      Format : AAC
      Format/Info : Advanced Audio Codec
      Format profile : LC
      Codec ID : 40
      Duration : 47mn 40s
      Bit rate mode : Variable
      Bit rate : 124 Kbps
      Maximum bit rate : 128 Kbps
      Channel count : 2 channels
      Channel positions : Front: L R
      Sampling rate : 44.1 KHz
      Compression mode : Lossy
      Stream size : 42.4 MiB (19%)

0

11

mp4_640_480_1024.mp4 - такой как у мамы был

0

12

mp4_0128.mp4 -
Результат:
розмір: 116 627 063 байт /48 = 2 429 730,4791666666666666666666667 байт/хв

КМП

D:\_Video to Video\mp4_0128.mp4
   General
      Complete name : D:\_Video to Video\mp4_0128.mp4
      Format : MPEG-4
      Format profile : Base Media
      Codec ID : isom
      File size : 111 MiB
      Duration : 47mn 40s
      Overall bit rate mode : Variable
      Overall bit rate : 326 Kbps
      Writing application : Lavf54.63.104
   Video #1
      ID : 1
      Format : MPEG-4 Visual
      Format profile : Simple@L1
      Format settings, BVOP : No
      Format settings, QPel : No
      Format settings, GMC : No warppoints
      Format settings, Matrix : Default (H.263)
      Codec ID : 20
      Duration : 47mn 40s
      Bit rate mode : Constant
      Bit rate : 196 Kbps
      Width : 720 pixels
      Height : 400 pixels
      Display aspect ratio : 16:9
      Frame rate mode : Constant
      Frame rate : 25.000 fps
      Color space : YUV
      Chroma subsampling : 4:2:0
      Bit depth : 8 bits
      Scan type : Progressive
      Compression mode : Lossy
      Bits/(Pixel*Frame) : 0.027
      Stream size : 66.7 MiB (60%)
      Writing library : Lavc54.92.100
   Audio #2
      ID : 2
      Format : AAC
      Format/Info : Advanced Audio Codec
      Format profile : LC
      Codec ID : 40
      Duration : 47mn 40s
      Bit rate mode : Variable
      Bit rate : 124 Kbps
      Maximum bit rate : 128 Kbps
      Channel count : 2 channels
      Channel positions : Front: L R
      Sampling rate : 44.1 KHz
      Compression mode : Lossy
      Stream size : 42.4 MiB (38%)

0

13

Для мобільного №1
mp4_174_144_0128_15.mp4
час: 47:40
розмір:51 914 933 байт / 48 = 1 081 561,1041666666666666666666667 байт/хв

ВІДЕО НОРМ! ЗВУК ПОГАНИЙ!

   Video
      File size : 49.5 MiB
      Bit rate : 127 Kbps
      Width : 176 pixels
      Height : 144 pixels
      Frame rate : 15.000 fps

   Audio
      Format : AAC
      Bit rate mode : Constant
      Bit rate : 13.3 Kbps
      Channel count : 2 channels
      Sampling rate : 44.1 KHz
      Compression mode : Lossy
      Stream size : 4.53 MiB (9%)

КМП

D:\_Video to Video\mp4_174_144_0128_15.mp4
   General
      Complete name : D:\_Video to Video\mp4_174_144_0128_15.mp4
      Format : MPEG-4
      Format profile : Base Media
      Codec ID : isom
      File size : 49.5 MiB
      Duration : 47mn 40s
      Overall bit rate mode : Constant
      Overall bit rate : 145 Kbps
      Writing application : Lavf54.63.104

   Video #1
      ID : 1
      Format : MPEG-4 Visual
      Format profile : Simple@L1
      Format settings, BVOP : No
      Format settings, QPel : No
      Format settings, GMC : No warppoints
      Format settings, Matrix : Default (H.263)
      Codec ID : 20
      Duration : 47mn 40s
      Bit rate mode : Constant
      Bit rate : 127 Kbps
      Width : 176 pixels
      Height : 144 pixels
      Display aspect ratio : 1.222
      Frame rate mode : Constant
      Frame rate : 15.000 fps
      Color space : YUV
      Chroma subsampling : 4:2:0
      Bit depth : 8 bits
      Scan type : Progressive
      Compression mode : Lossy
      Bits/(Pixel*Frame) : 0.335
      Stream size : 43.5 MiB (88%)
      Writing library : Lavc54.92.100

   Audio #2
      ID : 2
      Format : AAC
      Format/Info : Advanced Audio Codec
      Format profile : LC
      Codec ID : 40
      Duration : 47mn 40s
      Bit rate mode : Constant
      Bit rate : 13.3 Kbps
      Channel count : 2 channels
      Channel positions : Front: L R
      Sampling rate : 44.1 KHz
      Compression mode : Lossy
      Stream size : 4.53 MiB (9%)


mp4_176_144_0160_15_64_44100.mp4
розмір:81 792 851 байт / 48 = 1 704 017,7291666666666666666666667 байт/хв
      File size : 78.0 MiB
   Video
      Bit rate : 160 Kbps
      Width : 176 pixels
      Height : 144 pixels
      Frame rate : 15.000 fps
   Audio
      Format : AAC
      Bit rate mode : Constant
      Bit rate : 66.2 Kbps
      Channel count : 2 channels
      Sampling rate : 44.1 KHz
      Compression mode : Lossy
      Stream size : 22.4 MiB (29%)

ВІДЕО НОРМ! ЗВУК БІЛЬШ-МЕНШ!

КМП

D:\_Video to Video\mp4_176_144_0160_15_64_44100.mp4
   General
      Complete name : D:\_Video to Video\mp4_176_144_0160_15_64_44100.mp4
      Format : MPEG-4
      Format profile : Base Media
      Codec ID : isom
      File size : 78.0 MiB
      Duration : 47mn 40s
      Overall bit rate mode : Variable
      Overall bit rate : 229 Kbps
      Writing application : Lavf54.63.104
   Video #1
      ID : 1
      Format : MPEG-4 Visual
      Format profile : Simple@L1
      Format settings, BVOP : No
      Format settings, QPel : No
      Format settings, GMC : No warppoints
      Format settings, Matrix : Default (H.263)
      Codec ID : 20
      Duration : 47mn 40s
      Bit rate mode : Variable
      Bit rate : 160 Kbps
      Width : 176 pixels
      Height : 144 pixels
      Display aspect ratio : 1.222
      Frame rate mode : Constant
      Frame rate : 15.000 fps
      Color space : YUV
      Chroma subsampling : 4:2:0
      Bit depth : 8 bits
      Scan type : Progressive
      Compression mode : Lossy
      Bits/(Pixel*Frame) : 0.421
      Stream size : 54.1 MiB (69%)
      Writing library : Lavc54.92.100
   Audio #2
      ID : 2
      Format : AAC
      Format/Info : Advanced Audio Codec
      Format profile : LC
      Codec ID : 40
      Duration : 47mn 40s
      Bit rate mode : Constant
      Bit rate : 66.2 Kbps
      Channel count : 2 channels
      Channel positions : Front: L R
      Sampling rate : 44.1 KHz
      Compression mode : Lossy
      Stream size : 22.4 MiB (29%)



mp4_176_144_0160_25_64_44100.160.mp4
розмір:82 809 217 байт / 48 = 1 725 192,0208333333333333333333333 байт/хв
      File size : 79.0 MiB
   Video
      Bit rate : 160 Kbps
      Width : 176 pixels
      Height : 144 pixels
      Frame rate mode : Constant
      Frame rate : 25.000 fps

   Audio
      Format : AAC
      Bit rate mode : Constant
      Bit rate : 66.2 Kbps
      Channel count : 2 channels
      Sampling rate : 44.1 KHz
      Compression mode : Lossy
      Stream size : 22.4 MiB (28%)

ПРИ FRAME=25 КРУТИТ ВРОДЕ НОРМАЛЬНО!

КМП

D:\_Video to Video\m1\mp4_176_144_0160_25_64_44100.160.mp4
   General
      Complete name : D:\_Video to Video\m1\mp4_176_144_0160_25_64_44100.160.mp4
      Format : MPEG-4
      Format profile : Base Media
      Codec ID : isom
      File size : 79.0 MiB
      Duration : 47mn 40s
      Overall bit rate mode : Constant
      Overall bit rate : 232 Kbps
      Writing application : Lavf54.63.104

   Video #1
      ID : 1
      Format : MPEG-4 Visual
      Format profile : Simple@L1
      Format settings, BVOP : No
      Format settings, QPel : No
      Format settings, GMC : No warppoints
      Format settings, Matrix : Default (H.263)
      Codec ID : 20
      Duration : 47mn 40s
      Bit rate mode : Constant
      Bit rate : 160 Kbps
      Width : 176 pixels
      Height : 144 pixels
      Display aspect ratio : 1.222
      Frame rate mode : Constant
      Frame rate : 25.000 fps
      Color space : YUV
      Chroma subsampling : 4:2:0
      Bit depth : 8 bits
      Scan type : Progressive
      Compression mode : Lossy
      Bits/(Pixel*Frame) : 0.252
      Stream size : 54.4 MiB (69%)
      Writing library : Lavc54.92.100
   Audio #2
      ID : 2
      Format : AAC
      Format/Info : Advanced Audio Codec
      Format profile : LC
      Codec ID : 40
      Duration : 47mn 40s
      Bit rate mode : Constant
      Bit rate : 66.2 Kbps
      Channel count : 2 channels
      Channel positions : Front: L R
      Sampling rate : 44.1 KHz
      Compression mode : Lossy
      Stream size : 22.4 MiB (28%)

0

14

Проба 1 для моб-1
Том и джери
008.Pernataia.podrujka.1942.DivX.DVDRip.mp4
(звук можна було моно)
      Format : MPEG-4       File size : 14.6 MiB      Duration : 7mn 49s      Overall bit rate mode : Variable
      Overall bit rate : 262 Kbps
   Video
      Format : MPEG-4 Visual      Bit rate : 162 Kbps      Width : 176 pixels      Height : 144 pixels
      Frame rate mode : Constant      Frame rate : 23.976 fps      Stream size : 9.04 MiB (62%)

   Audio
      Format : AAC      Bit rate mode : Variable      Bit rate : 96.0 Kbps      Channel count : 2 channels
      Sampling rate : 44.1 KHz      Stream size : 5.33 MiB (36%)

КМП

H:\_1\008.Pernataia.podrujka.1942.DivX.DVDRip.mp4
   General
      Complete name : H:\_1\008.Pernataia.podrujka.1942.DivX.DVDRip.mp4
      Format : MPEG-4
      Format profile : Base Media
      Codec ID : isom
      File size : 14.6 MiB
      Duration : 7mn 49s
      Overall bit rate mode : Variable
      Overall bit rate : 262 Kbps
      Writing application : Lavf54.63.104
   Video #1
      ID : 1
      Format : MPEG-4 Visual
      Format profile : Simple@L1
      Format settings, BVOP : No
      Format settings, QPel : No
      Format settings, GMC : No warppoints
      Format settings, Matrix : Default (H.263)
      Codec ID : 20
      Duration : 7mn 49s
      Bit rate mode : Constant
      Bit rate : 162 Kbps
      Width : 176 pixels
      Height : 144 pixels
      Display aspect ratio : 1.222
      Frame rate mode : Constant
      Frame rate : 23.976 fps
      Color space : YUV
      Chroma subsampling : 4:2:0
      Bit depth : 8 bits
      Scan type : Progressive
      Compression mode : Lossy
      Bits/(Pixel*Frame) : 0.266
      Stream size : 9.04 MiB (62%)
      Writing library : Lavc54.92.100
   Audio #2
      ID : 2
      Format : AAC
      Format/Info : Advanced Audio Codec
      Format profile : LC
      Codec ID : 40
      Duration : 7mn 49s
      Duration_LastFrame : -16ms
      Bit rate mode : Variable
      Bit rate : 96.0 Kbps
      Channel count : 2 channels
      Channel positions : Front: L R
      Sampling rate : 44.1 KHz
      Compression mode : Lossy
      Stream size : 5.33 MiB (36%)

0

15

"моб1(выс).avi"

      Format : AVI      File size : 578 KiB      Duration : 6s 800ms
      Overall bit rate : 696 Kbps

   Video
      Format : JPEG      Bit rate : 549 Kbps      Width : 176 pixels
      Height : 144 pixels      Frame rate : 14.118 fps

   Audio
      Format : PCM      Bit rate mode : Constant      Bit rate : 128 Kbps
      Channel count : 1 channel      Sampling rate : 8 000 Hz
      Bit depth : 16 bits      Stream size : 106 KiB (18%)

КМП

D:\_Video to Video\Видеокамера моб1\моб1(выс).avi
   General
      Complete name : D:\_Video to Video\Видеокамера моб1\моб1(выс).avi
      Format : AVI
      Format/Info : Audio Video Interleave
      File size : 578 KiB
      Duration : 6s 800ms
      Overall bit rate : 696 Kbps
   Video #0
      ID : 0
      Format : JPEG
      Codec ID : MJPG
      Duration : 6s 800ms
      Bit rate : 549 Kbps
      Width : 176 pixels
      Height : 144 pixels
      Display aspect ratio : 1.222
      Frame rate : 14.118 fps
      Color space : YUV
      Chroma subsampling : 4:2:0
      Bit depth : 8 bits
      Compression mode : Lossy
      Bits/(Pixel*Frame) : 1.534
      Stream size : 456 KiB (79%)
   Audio #1
      ID : 1
      Format : PCM
      Format settings, Endianness : Little
      Format settings, Sign : Signed
      Codec ID : 1
      Duration : 6s 800ms
      Bit rate mode : Constant
      Bit rate : 128 Kbps
      Channel count : 1 channel
      Sampling rate : 8 000 Hz
      Bit depth : 16 bits
      Stream size : 106 KiB (18%)
      Alignment : Aligned on interleaves
      Interleave, duration : 486 ms (6.86 video frames)

0

16

МИНУЛА 008.Pernataia.podrujka.1942.DivX.DVDRip_mpeg4.mp4 зроблена "Any Video Converter Professional"
      Format : MPEG-4      Format profile : Base Media / Version 2      File size : 17.0 MiB
      Duration : 7mn 49s

   Video

      Format : MPEG-4 Visual      Format settings, Matrix : Default (H.263)      Codec ID : 20
      Bit rate mode : Variable      Bit rate : 164 Kbps      Maximum bit rate : 433 Kbps
      Width : 176 pixels      Height : 144 pixels
      Frame rate : 20.000 fps

   Audio
      Format : AAC      Codec ID : 40      Bit rate mode : Variable
      Bit rate : 138 Kbps      Maximum bit rate : 151 Kbps
      Channel count : 2 channels       Sampling rate : 44.1 KHz
      Stream size : 7.69 MiB (45%)      Source stream size : 7.70 MiB (45%)

КМП

General

      Format : MPEG-4
      Format profile : Base Media / Version 2
      Codec ID : mp42
      File size : 17.0 MiB
      Duration : 7mn 49s
      Overall bit rate mode : Variable
      Overall bit rate : 304 Kbps
      Encoded date : UTC 2019-11-01 18:47:41
      Tagged date : UTC 2019-11-01 18:47:44
      Writing application : mp4creator 1.6.1d
   Video #1
      ID : 1
      Format : MPEG-4 Visual
      Format profile : Simple@L1
      Format settings, BVOP : No
      Format settings, QPel : No
      Format settings, GMC : No warppoints
      Format settings, Matrix : Default (H.263)
      Codec ID : 20
      Duration : 7mn 49s
      Bit rate mode : Variable
      Bit rate : 164 Kbps
      Maximum bit rate : 433 Kbps
      Width : 176 pixels
      Height : 144 pixels
      Display aspect ratio : 1.222
      Original display aspect ratio : 4:3
      Frame rate mode : Constant
      Frame rate : 20.000 fps
      Color space : YUV
      Chroma subsampling : 4:2:0
      Bit depth : 8 bits
      Scan type : Progressive
      Compression mode : Lossy
      Bits/(Pixel*Frame) : 0.324
      Stream size : 9.19 MiB (54%)
      Language : English
      Encoded date : UTC 2019-11-01 18:47:41
      Tagged date : UTC 2019-11-01 18:47:44
   Audio #2
      ID : 2
      Format : AAC
      Format/Info : Advanced Audio Codec
      Format profile : LC
      Codec ID : 40
      Duration : 7mn 48s
      Source duration : 7mn 49s
      Bit rate mode : Variable
      Bit rate : 138 Kbps
      Maximum bit rate : 151 Kbps
      Channel count : 2 channels
      Channel positions : Front: L R
      Sampling rate : 44.1 KHz
      Compression mode : Lossy
      Stream size : 7.69 MiB (45%)
      Source stream size : 7.70 MiB (45%)
      Language : English
      Encoded date : UTC 2019-11-01 18:47:44
      Tagged date : UTC 2019-11-01 18:47:44

0

17

Том и джери конвертую на моб1  в 176x144_160_15__128_2 повинно бути нормально!

mp4_176x144_160_15__128_2.evv

[Video to Video Profile]
ID=MP4 Movie (*.mp4)
[MP4 Movie (*.mp4)]
rQuality=Custom
rVideoCodec=mpeg4
rAudioCodec=aac
rAudioChannel=2
rAudioSamplerate=44100
rVolume=256
rVideoSize=176x144
rVideoFramerate=15
rVideoAspect=Auto
rVideoBitrate=160
rAudioBitrate=128
rVideoPreset=
rDisableAudio=No
rAVSync=No
rExtraCommand=
rDeinterlace=No
rKeepAspect=Yes
rSubtitleRenderer=Video to Video
rTargetFilesize=0
rTwopass=No

0

18

Не хоче конвертувати чогось 024.Podkidyshi.1946.DivX.DVDRip.mp4
повернувся до VideoConvPro
з налаштуваннями
MP4 176x144 160 15 aac 128 2 AVsynhr=default

0

19

Відео з ютубу MP4 360 (характеристики)
"Монгольское искусство зимней рыбалки. Китай. Мир наизнанку 11 сезон 6 серия .mp4"
http://youtube.com/watch?v=ZHMr_BPeTvU& … e=youtu.be

КМП

Монгольское искусство зимней рыбалки. Китай. Мир наизнанку 11 сезон 6 серия .mp4
   General
      Complete name : Монгольское искусство зимней рыбалки. Китай. Мир наизнанку 11 сезон 6 серия .mp4
      Format : MPEG-4
      Format profile : Base Media / Version 2
      Codec ID : mp42
      File size : 303 MiB
      Duration : 1h 2mn
      Overall bit rate mode : Variable
      Overall bit rate : 678 Kbps
      Encoded date : UTC 2020-03-09 04:44:19
      Tagged date : UTC 2020-03-09 04:44:19

   Video #1
      ID : 1
      Format : AVC
      Format/Info : Advanced Video Codec
      Format profile : Baseline@L3.0
      Format settings, CABAC : No
      Format settings, ReFrames : 1 frame
      Codec ID : avc1
      Codec ID/Info : Advanced Video Coding
      Duration : 1h 2mn
      Bit rate : 580 Kbps
      Width : 640 pixels
      Height : 360 pixels
      Display aspect ratio : 16:9
      Frame rate mode : Constant
      Frame rate : 25.000 fps
      Color space : YUV
      Chroma subsampling : 4:2:0
      Bit depth : 8 bits
      Scan type : Progressive
      Bits/(Pixel*Frame) : 0.101
      Stream size : 259 MiB (85%)
      Title : ISO Media file produced by Google Inc. Created on: 03/08/2020.
      Writing library : x264 core 155 r2901 7d0ff22
      Encoded date : UTC 2020-03-09 04:44:19
      Tagged date : UTC 2020-03-09 04:44:19
      Color primaries : BT.709
      Transfer characteristics : BT.709
      Matrix coefficients : BT.709
   Audio #2
      ID : 2
      Format : AAC
      Format/Info : Advanced Audio Codec
      Format profile : LC
      Codec ID : 40
      Duration : 1h 2mn
      Bit rate mode : Variable
      Bit rate : 96.0 Kbps
      Channel count : 2 channels
      Channel positions : Front: L R
      Sampling rate : 44.1 KHz
      Compression mode : Lossy
      Stream size : 42.9 MiB (14%)
      Title : ISO Media file produced by Google Inc. Created on: 03/08/2020.
      Encoded date : UTC 2020-03-09 04:44:19
      Tagged date : UTC 2020-03-09 04:44:19

0

20

256.mp4
для моб2 слабко
треба 384
розмір 138131436 / 48 = 2877738,25 байт хв.

КМП

D:\_Video to Video\256.mp4
   General
      Complete name : D:\_Video to Video\256.mp4
      Format : MPEG-4
      Format profile : Base Media
      Codec ID : isom
      File size : 132 MiB
      Duration : 47mn 40s
      Overall bit rate mode : Variable
      Overall bit rate : 386 Kbps
      Writing application : Lavf54.63.104
   Video #1
      ID : 1
      Format : MPEG-4 Visual
      Format profile : Simple@L1
      Format settings, BVOP : No
      Format settings, QPel : No
      Format settings, GMC : No warppoints
      Format settings, Matrix : Default (H.263)
      Codec ID : 20
      Duration : 47mn 40s
      Bit rate mode : Constant
      Bit rate : 256 Kbps
      Width : 720 pixels
      Height : 400 pixels
      Display aspect ratio : 16:9
      Frame rate mode : Constant
      Frame rate : 25.000 fps
      Color space : YUV
      Chroma subsampling : 4:2:0
      Bit depth : 8 bits
      Scan type : Progressive
      Compression mode : Lossy
      Bits/(Pixel*Frame) : 0.036
      Stream size : 87.2 MiB (66%)
      Writing library : Lavc54.92.100
   Audio #2
      ID : 2
      Format : AAC
      Format/Info : Advanced Audio Codec
      Format profile : LC
      Codec ID : 40
      Duration : 47mn 40s
      Bit rate mode : Variable
      Bit rate : 124 Kbps
      Maximum bit rate : 128 Kbps
      Channel count : 2 channels
      Channel positions : Front: L R
      Sampling rate : 44.1 KHz
      Compression mode : Lossy
      Stream size : 42.4 MiB (32%)

320_240_384.mp4
розмір:183788134/48 = 3 828 919,4583333333333333333333333 байта/хв

КМП

D:\_Video to Video\320_240_384.mp4
   General
      Complete name : D:\_Video to Video\320_240_384.mp4
      Format : MPEG-4
      Format profile : Base Media
      Codec ID : isom
      File size : 175 MiB
      Duration : 47mn 40s
      Overall bit rate mode : Variable
      Overall bit rate : 514 Kbps
      Writing application : Lavf54.63.104
   Video #1
      ID : 1
      Format : MPEG-4 Visual
      Format profile : Simple@L1
      Format settings, BVOP : No
      Format settings, QPel : No
      Format settings, GMC : No warppoints
      Format settings, Matrix : Default (H.263)
      Codec ID : 20
      Duration : 47mn 40s
      Bit rate mode : Constant
      Bit rate : 383 Kbps
      Width : 320 pixels
      Height : 240 pixels
      Display aspect ratio : 4:3
      Frame rate mode : Constant
      Frame rate : 25.000 fps
      Color space : YUV
      Chroma subsampling : 4:2:0
      Bit depth : 8 bits
      Scan type : Progressive
      Compression mode : Lossy
      Bits/(Pixel*Frame) : 0.200
      Stream size : 131 MiB (75%)
      Writing library : Lavc54.92.100
   Audio #2
      ID : 2
      Format : AAC
      Format/Info : Advanced Audio Codec
      Format profile : LC
      Codec ID : 40
      Duration : 47mn 40s
      Bit rate mode : Variable
      Bit rate : 124 Kbps
      Maximum bit rate : 128 Kbps
      Channel count : 2 channels
      Channel positions : Front: L R
      Sampling rate : 44.1 KHz
      Compression mode : Lossy
      Stream size : 42.4 MiB (24%)

0

Быстрый ответ

Напишите ваше сообщение и нажмите «Отправить»



Вы здесь » Про усе » Архів » Відеопроби (конвертування)